in

Great British Menu S19E09 London and the South East England Judging (1080p, soft English subtitles)

Great British Menu S19E09 London and the South East England Judging (1080p, soft English subtitles)

The two highest-scoring chefs from London and south east England must go head-to-head and cook their six-course menus again. /  / They need to impress a panel of exacting judges: Michelin-starred chef Tom Kerridge, chef and top restaurateur Nisha Katona, and comedian and food podcaster Ed Gamble. The guest judge is former Team GB Olympian and Britain’s most successful male taekwondo athlete, Lutalo Muhammad. How will he judge dishes celebrating the Olympic and Paralympic games? /  / Only one of the chefs will triumph and go through to represent London and south east England at the national finals.

First Broadcast: 8 February 2024
Duration: 1 hour
Torrent dead? Request reseed at torrentgalaxy.org – or ask at elsonroa at tutanota.com  

Media info:-
General
Format                                   : MPEG-4
Format profile                           : Base Media
Codec ID                                 : isom (isom/iso2/avc1/mp41)
File size                                : 2.49 GiB
Duration                                 : 58 min 57 s
Overall bit rate mode                    : Variable
Overall bit rate                         : 6 052 kb/s

Video
ID                                       : 1
Format                                   : AVC
Format/Info                              : Advanced Video Codec
Format profile                           : [email protected]
Format settings                          : CABAC / 4 Ref Frames
Format settings, CABAC                   : Yes
Format settings, Reference frames        : 4 frames
Codec ID                                 : avc1
Codec ID/Info                            : Advanced Video Coding
Duration                                 : 58 min 57 s
Bit rate mode                            : Variable
Bit rate                                 : 5 916 kb/s
Maximum bit rate                         : 12.0 Mb/s
Width                                    : 1 920 pixels
Height                                   : 1 080 pixels
Display aspect ratio                     : 16:9
Frame rate mode                          : Constant
Frame rate                               : 50.000 FPS
Color space                              : YUV
Chroma subsampling                       : 4:2:0
Bit depth                                : 8 bits
Scan type                                : Progressive
Bits/(Pixel*Frame)                       : 0.057
Stream size                              : 2.44 GiB (98%)
Color range                              : Limited
Color primaries                          : BT.709
Transfer characteristics                 : BT.709
Matrix coefficients                      : BT.709
Codec configuration box                  : avcC

Audio
ID                                       : 2
Format                                   : AAC LC
Format/Info                              : Advanced Audio Codec Low Complexity
Codec ID                                 : mp4a-40-2
Duration                                 : 58 min 57 s
Bit rate mode                            : Variable
Bit rate                                 : 128 kb/s
Maximum bit rate                         : 132 kb/s / 132 kb/s
Channel(s)                               : 2 channels
Channel layout                           : L R
Sampling rate                            : 48.0 kHz
Frame rate                               : 46.875 FPS (1024 SPF)
Compression mode                         : Lossy
Stream size                              : 54.0 MiB (2%)
Language                                 : English

Leave a Reply

Your email address will not be published. Required fields are marked *

Double.Cross.2020.S05E04.1080p.HEVC.x265-MeGusta[TGx]

The Madame Blanc Mysteries S03 Complete 1080P RB58