in ,

Doctor.Who.2005.S03.PROPER.1080p.BluRay.x265-KONTRAST

INFO

GENERAL
Complete name                            : Doctor.Who.2005.S03E01.1080p.BluRay.x265-KONTRAST.mp4
Format                                   : MPEG-4
Format profile                           : Base Media
Codec ID                                 : isom (isom/iso2/mp41)
File size                                : 923 MiB
Duration                                 : 46 min 40 s
Overall bit rate                         : 2 764 kb/s
Frame rate                               : 23.976 FPS
Writing application                      : Hybrik 1.247.21

VIDEO
ID                                       : 1
Format                                   : HEVC
Format/Info                              : High Efficiency Video Coding
Format profile                           : Main@L4@Main
Codec ID                                 : hvc1
Codec ID/Info                            : High Efficiency Video Coding
Duration                                 : 46 min 40 s
Bit rate                                 : 2 534 kb/s
Width                                    : 1 872 pixels
Height                                   : 1 080 pixels
Display aspect ratio                     : 1.733
Frame rate mode                          : Constant
Frame rate                               : 23.976 (24000/1001) FPS
Color space                              : YUV
Chroma subsampling                       : 4:2:0
Bit depth                                : 8 bits
Scan type                                : Progressive
Bits/(Pixel*Frame)                       : 0.052
Stream size                              : 846 MiB (92%)
Language                                 : English
Color range                              : Limited
Color primaries                          : BT.709
Transfer characteristics                 : BT.709
Matrix coefficients                      : BT.709
Codec configuration box                  : hvcC

AUDIO
ID                                       : 2
Format                                   : AAC LC
Format/Info                              : Advanced Audio Codec Low Complexity
Codec ID                                 : mp4a-40-2
Duration                                 : 46 min 40 s
Source duration                          : 46 min 40 s
Source_Duration_LastFrame                : -12 ms
Bit rate mode                            : Constant
Bit rate                                 : 224 kb/s
Channel(s)                               : 6 channels
Channel layout                           : C L R Ls Rs LFE
Sampling rate                            : 48.0 kHz
Frame rate                               : 46.875 FPS (1024 SPF)
Compression mode                         : Lossy
Stream size                              : 74.8 MiB (8%)
Source stream size                       : 74.8 MiB (8%)
Language                                 : English
Default                                  : Yes
Alternate group                          : 1

SCREENSHOTS

===============================================================

PLEASE SEED FOR 48-72H!

===============================================================

Leave a Reply

Your email address will not be published. Required fields are marked *

Saturday.Night.Live.S49E07.Adam.Driver.720p.WEB.h264-EDITH[TGx]

TeenPies.23.12.10.Luxe.La.Fox.Leave.The.Shyness.Behind.XXX.1080p.HEVC.x265.PRT[XvX]