in ,

Frasier.2023.S01.1080p.WEBRip.x265-KONTRAST

INFO

GENERAL
Complete name                            : Frasier.2023.S01E01.1080p.WEBRip.x265-KONTRAST.mp4
Format                                   : MPEG-4
Format profile                           : Base Media
Codec ID                                 : isom (isom/iso2/mp41)
File size                                : 603 MiB
Duration                                 : 29 min 3 s
Overall bit rate                         : 2 903 kb/s
Writing application                      : Hybrik 1.247.21

VIDEO
ID                                       : 1
Format                                   : HEVC
Format/Info                              : High Efficiency Video Coding
Format profile                           : Main@L4@Main
Codec ID                                 : hvc1
Codec ID/Info                            : High Efficiency Video Coding
Duration                                 : 29 min 3 s
Bit rate                                 : 2 673 kb/s
Width                                    : 1 920 pixels
Height                                   : 1 080 pixels
Display aspect ratio                     : 16:9
Frame rate mode                          : Constant
Frame rate                               : 24.000 FPS
Color space                              : YUV
Chroma subsampling                       : 4:2:0
Bit depth                                : 8 bits
Scan type                                : Progressive
Bits/(Pixel*Frame)                       : 0.054
Stream size                              : 556 MiB (92%)
Language                                 : English
Color range                              : Limited
Color primaries                          : BT.709
Transfer characteristics                 : BT.709
Matrix coefficients                      : BT.709
Codec configuration box                  : hvcC

AUDIO
ID                                       : 2
Format                                   : AAC LC
Format/Info                              : Advanced Audio Codec Low Complexity
Codec ID                                 : mp4a-40-2
Duration                                 : 29 min 3 s
Source duration                          : 29 min 3 s
Source_Duration_LastFrame                : -11 ms
Bit rate mode                            : Constant
Bit rate                                 : 224 kb/s
Channel(s)                               : 6 channels
Channel layout                           : C L R Ls Rs LFE
Sampling rate                            : 48.0 kHz
Frame rate                               : 46.875 FPS (1024 SPF)
Compression mode                         : Lossy
Stream size                              : 46.5 MiB (8%)
Source stream size                       : 46.5 MiB (8%)
Language                                 : English
Default                                  : Yes
Alternate group                          : 1

SCREENSHOTS

===============================================================

PLEASE SEED FOR 48-72H!

===============================================================

Leave a Reply

Your email address will not be published. Required fields are marked *

Dino.Pops.S01E08.480p.x264-RUBiK

Dino.Pops.S01E07.480p.x264-RUBiK