in ,

Strictly – It Takes Two S21E54 (1280x720p HD, 50fps, soft Eng subs)

Strictly – It Takes Two S21E54 (1280x720p HD, 50fps, soft Eng subs)  

Janette Manrara returns with more behind-the-scenes action from the world of Strictly. And designer Vicky Gill is back with an exclusive look at some of the weekend’s outfits.

First broadcast:  7 December 2023  
Duration: 30 minutes    
Torrent dead? Request reseed at torrentgalaxy.org – or ask at elsonroa at tutanota.com  

Media info:-
General
Format                                   : MPEG-4
Format profile                           : Base Media
Codec ID                                 : isom (isom/iso2/avc1/mp41)
File size                                : 1.06 GiB
Duration                                 : 29 min 2 s
Overall bit rate mode                    : Variable
Overall bit rate                         : 5 211 kb/s

Video
ID                                       : 1
Format                                   : AVC
Format/Info                              : Advanced Video Codec
Format profile                           : [email protected]
Format settings                          : CABAC / 4 Ref Frames
Format settings, CABAC                   : Yes
Format settings, Reference frames        : 4 frames
Codec ID                                 : avc1
Codec ID/Info                            : Advanced Video Coding
Duration                                 : 29 min 2 s
Bit rate mode                            : Variable
Bit rate                                 : 5 073 kb/s
Maximum bit rate                         : 7 605 kb/s
Width                                    : 1 280 pixels
Height                                   : 720 pixels
Display aspect ratio                     : 16:9
Frame rate mode                          : Variable
Frame rate                               : 50.000 FPS
Minimum frame rate                       : 25.000 FPS
Maximum frame rate                       : 90 000.000 FPS
Standard                                 : Component
Color space                              : YUV
Chroma subsampling                       : 4:2:0
Bit depth                                : 8 bits
Scan type                                : Progressive
Bits/(Pixel*Frame)                       : 0.110
Stream size                              : 1.03 GiB (97%)
Color range                              : Limited
Color primaries                          : BT.709
Transfer characteristics                 : BT.709
Matrix coefficients                      : BT.709
Codec configuration box                  : avcC

Audio
ID                                       : 2
Format                                   : AAC LC
Format/Info                              : Advanced Audio Codec Low Complexity
Codec ID                                 : mp4a-40-2
Duration                                 : 29 min 2 s
Bit rate mode                            : Variable
Bit rate                                 : 128 kb/s
Maximum bit rate                         : 131 kb/s / 131 kb/s
Channel(s)                               : 2 channels
Channel layout                           : L R
Sampling rate                            : 48.0 kHz
Frame rate                               : 46.875 FPS (1024 SPF)
Compression mode                         : Lossy
Stream size                              : 26.6 MiB (2%)
Language                                 : English

Leave a Reply

Your email address will not be published. Required fields are marked *

University Challenge 2023-24 E21 (1280x720p HD, 50fps, soft Eng subs)

Foreigner – Long, Long Way from Home [RockPop, 1978] VOB