in ,

Miracles (2003) DVDRip

[ Miracles (2003) – DVD-RIP ]

This is a very old DVD-RIP copy, from the days when the best codec available was DivX. The image quality is not very good, as a lot of compression was used. I just changed the container to MKV.

This is a Great Show!

If you have the original DVDs and can provide ISO files of it, please PM me.

With the original files, I can use AI and generate a version with better image quality.

MEDIA INFO

  • Resolution: 512P (DiVX MPEG-4)
  • Screen Aspect: 4:3
  • Audio: English (AC3)
  • Subtitles: Portuguese (SRT)
  • Framerate: 23.976 FPS

    IMDB: https://www.imdb.com/title/tt0320075[img]null[/img]

    PLOT
    Paul Callan investigates modern miracles for the Catholic Church. While working on a case involving a terminally-ill boy who supposedly can heal people, Paul witnesses his true miraculous power but also faces a sinister demonic entity known as Darkness. However, the Church dismisses all his findings, so the ever-more-disillusioned Paul quits and continues his work with private investigators: scholarly Alva Keel, who believes that Paul is on a path to become a powerful force for either good or evil; and his aide Evelyn Santos, who used to work as a cop.

    FILE INFO
    Input #0, matroska,webm, from ‘Miracles (2003) S01E01 – The Ferguson Syndrome – DVDRip XVID-AC3.mkv’:
     Metadata:
       encoder         : libebml v1.4.4 + libmatroska v1.7.1
       creation_time   : 2023-12-07T16:19:03.000000Z
     Duration: 00:43:18.14, start: 0.000000, bitrate: 1121 kb/s
     Stream #0:0: Video: mpeg4 (Advanced Simple Profile) (XVID / 0x44495658), yuv420p, 512×384 [SAR 1:1 DAR 4:3], 23.98 fps, 23.98 tbr, 1k tbn, 23.98 tbc (default)
       Metadata:
         BPS             : 927537
         DURATION        : 00:43:18.140000000
         NUMBER_OF_FRAMES: 62293
         NUMBER_OF_BYTES : 301234057
         _STATISTICS_WRITING_APP: mkvmerge v79.0 (‘Funeral Pyres’) 64-bit
         _STATISTICS_WRITING_DATE_UTC: 2023-12-07 16:19:03
         _STATISTICS_TAGS: BPS DURATION NUMBER_OF_FRAMES NUMBER_OF_BYTES
     Stream #0:1: Audio: ac3, 48000 Hz, stereo, fltp, 192 kb/s (default)
       Metadata:
         BPS             : 192000
         DURATION        : 00:43:18.112000000
         NUMBER_OF_FRAMES: 81191
         NUMBER_OF_BYTES : 62354688
         _STATISTICS_WRITING_APP: mkvmerge v79.0 (‘Funeral Pyres’) 64-bit
         _STATISTICS_WRITING_DATE_UTC: 2023-12-07 16:19:03
         _STATISTICS_TAGS: BPS DURATION NUMBER_OF_FRAMES NUMBER_OF_BYTES

  • Leave a Reply

    Your email address will not be published. Required fields are marked *

    Foreigner – Dirty White Boy [RockPop, 1979] VOB

    311 – Creatures (For a While) [Craig Kilborn Show, 7-18-03] VOB