in ,

MasterChef (UK) The Professionals S16E20 (1280x720p HD, 50fps, soft Eng subs)

MasterChef (UK) The Professionals S16E20 (1280x720p HD, 50fps, soft Eng subs)  

It’s finals week on MasterChef: The Professionals, and just three incredible chefs remain. Embarking on the trip of a lifetime to Copenhagen, Denmark, they will enter a world of gastronomy that goes beyond anything they have encountered before. /  / Their journey will take them to the two Michelin-starred Alchemist. Recently voted the fifth best restaurant in the world, it is run by head chef and mastermind, Rasmus Munk. Entering an old shipyard, the finalists will step into an immersive world where science, art and food collide in breathtaking fashion. /  / First, the finalists will attend a short masterclass to understand the ethos behind Rasmus’ unique holistic food, where dishes are called ‘impressions’ for the very reason that they each tell a story designed to elicit an emotion from the diner. Some comforting, some confronting, this is an experience for the bold and the brave. Once inspired, it’s down to the three finalists to create their own ‘impression’ for Rasmus to taste and critique. Ingredients that would normally go to waste are a mainstay here, including pig’s windpipes, cod jaw and cow’s udders. So the finalists will have to use their chef’s intuition to deliver something truly spectacular. /  / That’s just for starters, as the lucky three will then have the once in a lifetime opportunity to join Rasmus’ 25 strong brigade of chefs to deliver a full restaurant service. They will each be responsible for two ‘impressions’ from an epic tasting menu that stretches to 50 courses. They will have just hours to deliver food that can take years to master. Expect dumplings made out of candyfloss and screen-printing techniques used to create sweet treats. This is creativity on entirely different scale.  /  / Today’s diners include Marcus, Monica and Gregg, who will expect their finalists to wow on every front and deliver dishes that hit Rasmus’ two Michelin star standard. The grand final is almost here, so every mouthful matters in the race to take the title.

First broadcast:  7 December 2023
Duration: 1 hour    
Torrent dead? Request reseed at torrentgalaxy.org – or ask at elsonroa at tutanota.com  
Media info:
General
Format                                   : MPEG-4
Format profile                           : Base Media
Codec ID                                 : isom (isom/iso2/avc1/mp41)
File size                                : 2.12 GiB
Duration                                 : 58 min 15 s
Overall bit rate mode                    : Variable
Overall bit rate                         : 5 205 kb/s

Video
ID                                       : 1
Format                                   : AVC
Format/Info                              : Advanced Video Codec
Format profile                           : [email protected]
Format settings                          : CABAC / 4 Ref Frames
Format settings, CABAC                   : Yes
Format settings, Reference frames        : 4 frames
Codec ID                                 : avc1
Codec ID/Info                            : Advanced Video Coding
Duration                                 : 58 min 15 s
Bit rate mode                            : Variable
Bit rate                                 : 5 067 kb/s
Maximum bit rate                         : 7 605 kb/s
Width                                    : 1 280 pixels
Height                                   : 720 pixels
Display aspect ratio                     : 16:9
Frame rate mode                          : Variable
Frame rate                               : 50.000 FPS
Minimum frame rate                       : 25.000 FPS
Maximum frame rate                       : 90 000.000 FPS
Color space                              : YUV
Chroma subsampling                       : 4:2:0
Bit depth                                : 8 bits
Scan type                                : Progressive
Bits/(Pixel*Frame)                       : 0.110
Stream size                              : 2.06 GiB (97%)
Color range                              : Limited
Color primaries                          : BT.709
Transfer characteristics                 : BT.709
Matrix coefficients                      : BT.709
Codec configuration box                  : avcC

Audio
ID                                       : 2
Format                                   : AAC LC
Format/Info                              : Advanced Audio Codec Low Complexity
Codec ID                                 : mp4a-40-2
Duration                                 : 58 min 15 s
Bit rate mode                            : Variable
Bit rate                                 : 128 kb/s
Maximum bit rate                         : 132 kb/s / 132 kb/s
Channel(s)                               : 2 channels
Channel layout                           : L R
Sampling rate                            : 48.0 kHz
Frame rate                               : 46.875 FPS (1024 SPF)
Compression mode                         : Lossy
Stream size                              : 53.3 MiB (2%)
Language                                 : English

Leave a Reply

Your email address will not be published. Required fields are marked *

Foreigner – Long, Long Way from Home [RockPop, 1978] VOB

Foreigner – Dirty White Boy [RockPop, 1979] VOB