in ,

The.Marvels.2023.V1.1080p.HDScrener.x264.Dual.YG⭐


==============================================================
The.Marvels.2023.V1.1080p.HDScrener.x264.Dual.YG⭐
==============================================================
                   General Information
==============================================================
Format                         : Matroska
Format version                 : Version 4
File size                      : 4.35 GiB
Duration                       : 1 h 38 min
Overall bit rate mode          : Variable
Overall bit rate               : 6 349 kb/s

Video
ID                             : 1
Format                         : AVC
Format/Info                    : Advanced Video Codec
Format profile                 : Main@L4
Format settings                : CABAC / 4 Ref Frames
Format settings, CABAC         : Yes
Format settings, Reference fra : 4 frames
Codec ID                       : V_MPEG4/ISO/AVC
Duration                       : 1 h 38 min
Bit rate mode                  : Variable
Bit rate                       : 6 026 kb/s
Maximum bit rate               : 16.0 Mb/s
Width                          : 1 920 pixels
Height                         : 896 pixels
Display aspect ratio           : 2.143
Frame rate mode                : Constant
Frame rate                     : 24.000 FPS
Color space                    : YUV
Chroma subsampling             : 4:2:0
Bit depth                      : 8 bits
Scan type                      : Progressive
Bits/(Pixel*Frame)             : 0.146
Stream size                    : 4.13 GiB (95%)
Language                       : Spanish
Default                        : Yes
Forced                         : No
Color range                    : Limited

Audio #1
ID                             : 2
Format                         : AAC LC
Codec ID                       : A_AAC-2
Duration                       : 1 h 38 min
Bit rate                       : 159 kb/s
Channel(s)                     : 2 channels
Channel layout                 : L R
Sampling rate                  : 44.1 kHz
Frame rate                     : 43.066 FPS (1024 SPF)
Compression mode               : Lossy
Stream size                    : 112 MiB (3%)
Title                          : latino
Language                       : Spanish
Default                        : Yes
Forced                         : No

Audio #2
ID                             : 3
Format                         : AAC LC
Codec ID                       : A_AAC-2
Duration                       : 1 h 38 min
Bit rate                       : 161 kb/s
Channel(s)                     : 2 channels
Channel layout                 : L R
Sampling rate                  : 48.0 kHz
Frame rate                     : 46.875 FPS (1024 SPF)
Compression mode               : Lossy
Stream size                    : 113 MiB (3%)
Title                          : English
Language                       : English
Default                        : No
Forced                         : No

==============================================================

                 Post Information
==============================================================
Posted by============: Yerisan Group
Posted on============: 04/12/2023
————————————————————








——————————————————-

——————————————————-



you can follow me…
Spanish YG

[b](-Gatty Dual YG-)

Torrent Downloaded From Gatty Dual YG
For More Exclusive Stuff Visit Us

(-Gatty Dual YG-)


PiRATES_NEVER_DiE!*
*We Just go ON and On and On…FOREVER!*

Leave a Reply

Your email address will not be published. Required fields are marked *

Incubus Light Grenades [2006] [Rock] [ com]

Windows Malware Analysis for Hedgehogs – Beginner Training