in ,

Napoleon.2023.720p.HDScrener.X264.Lat.YG⭐


==============================================================
Napoleon.2023.720p.HDScrener.X264.Lat.YG⭐
==============================================================
                   General Information
==============================================================
Format                         : Matroska
Format version                 : Version 4
File size                      : 6.92 GiB
Duration                       : 2 h 28 min
Overall bit rate               : 6 653 kb/s

Video
ID                             : 1
Format                         : AVC
Format profile                 : [email protected]
Format settings                : 3 Ref Frames
Format settings, CABAC         : No
Format settings, Reference fra : 3 frames
Format settings, GOP           : M=1, N=30
Codec ID                       : V_MPEG4/ISO/AVC
Duration                       : 2 h 28 min
Bit rate                       : 6 452 kb/s
Width                          : 1 280 pixels
Height                         : 720 pixels
Display aspect ratio           : 16:9
Frame rate mode                : Constant
Frame rate                     : 29.970  FPS
Standard                       : Component
Color space                    : YUV
Chroma subsampling             : 4:2:0
Bit depth                      : 8 bits
Scan type                      : Progressive
Bits/(Pixel*Frame)             : 0.234
Stream size                    : 6.71 GiB (97%)
Language                       : Spanish
Default                        : Yes
Forced                         : No
Color range                    : Limited

Audio
ID                             : 2
Format                         : AAC LC
Codec ID                       : A_AAC-2
Duration                       : 2 h 28 min
Bit rate                       : 192 kb/s
Channel(s)                     : 2 channels
Channel layout                 : L R
Sampling rate                  : 44.1 kHz
Frame rate                     : 43.066 FPS (1024 SPF)
Compression mode               : Lossy
Stream size                    : 205 MiB (3%)
Language                       : Spanish
Default                        : Yes
Forced                         : No

==============================================================

                 Post Information
==============================================================
Posted by============: Yerisan Group
Posted on============: 04/12/2023
————————————————————








——————————————————-

——————————————————-

you can follow me…
Spanish YG

[b](-Gatty Dual YG-)

Torrent Downloaded From Gatty Dual YG
For More Exclusive Stuff Visit Us

(-Gatty Dual YG-)


PiRATES_NEVER_DiE!*
*We Just go ON and On and On…FOREVER!*

Leave a Reply

Your email address will not be published. Required fields are marked *

Faith No More Who Cares A Lot The Greatest Hits [2CD] (320)

Faith No More The Real Thing 1989 (320)